Thông báo khẩn

Tạm thời shoutbox sẽ ko còn xuất hiện ở home page nữa.
Mọi người sử dung shoutbox bằng link bên dưới.
Go to shoutbox
  1. nvrbckdwn

    nvrbckdwn Ngáo Ộp Believer

      RE: Non-48 Flower

    Preview "Stranger" :v
    Click

    Thể loại mới (đv Bông), nghe cũng khá bắt tai :v
    1. View all 5 comments
    2. bangtamphucu
      bangtamphucu
      Nhạc này là đau khổ trên nền dance. Cũng mang âm hưởng cô độc như Elegy :P
      Aug 22, 2017
    3. bangtamphucu
      bangtamphucu
      Nghe full Stranger và đọc lời ít nhiều cũng đã thấm đc.
      Aug 22, 2017
    4. nvrbckdwn
      nvrbckdwn
      Đây là bài nhạc dance mình thấy lọt tai nhất trc giờ của nhà LDH :v
      Aug 22, 2017
  2. bangtamphucu

    bangtamphucu Dreamer

      RE: Non-48 Flower

    1. Comments
    2. bangtamphucu
      bangtamphucu
      Chính sách tính sale của Oricon thay đổi, đĩa lại ít bài mới nữa :P
      Aug 23, 2017
    3. nvrbckdwn
      nvrbckdwn
      Cũng khó nhưng hy vọng sẽ vượt đc Milky Way :v
      Aug 23, 2017
  3. nvrbckdwn

    nvrbckdwn Ngáo Ộp Believer

      RE: Non-48 Flower

    Lần này thì ko có sai trái gì nhóe :v Thông tin chính chủ MS :v

    [​IMG]
    bangtamphucu likes this.
    1. Comments
    2. bangtamphucu
      bangtamphucu
      28/8 có thêm live trên Melodix nhé :D
      Aug 26, 2017
  4. nvrbckdwn

    nvrbckdwn Ngáo Ộp Believer

      RE: Non-48 Flower

    Taiyou No Elegy trên Buzz Rhythm :v
    Màn trình diễn rất tốt của thiếu niên với lần đầu tiên live bài này trên TV :v
    Tuy mấy note cao lên chưa tới nhưng cũng gần sát rồi, ko có dấu hiệu căng cứng hay cố gắng quá mức, nếu bung sức thì thừa khả năng lên hết. Nói thật chứ bài này cũng ko dễ live, ngày nào mà ko sung sức là coi như bó tay, chỉ đc vậy là cùng. Còn note thấp thì quá đẹp, thiếu niên là 1 trong những ca sĩ hát note thấp hay nhất mình từng biết :v

    Code:
    https://mega.nz/#!qJpxiQ7I!E5fy6mb5g0ztSxzRpXvXGkh8TfNfJvemn9mbsQtu8W8
    Last edited: Aug 26, 2017
    bangtamphucu likes this.
    1. Comments
    2. bangtamphucu
      bangtamphucu
      mv đi chân trần bao cảm xúc, bị đôi giày vào làm tụt mood ghê :P
      Aug 28, 2017
    3. bangtamphucu
      bangtamphucu
      mình chỉ băn khoăn vụ outfit. dạo này sao bạ ai nấy mặc, chẳng đồng bộ gì.
      Aug 28, 2017
  5. nvrbckdwn

    nvrbckdwn Ngáo Ộp Believer

      RE: Non-48 Flower

    Flower Theater (DVDRip | H264 | VorbisQ9 | Chapters)

    [​IMG]

    Code:
    General
    Unique ID  : 223728756799474708643106736895690295674 (0xA8509759CE0CD84E8D5B6A5674B8497A)
    Complete name  : [170823][CC]Flower - Flower Theater.mkv
    Format  : Matroska
    Format version  : Version 2
    File size  : 1.91 GiB
    Duration  : 1 h 54 min
    Overall bit rate mode  : Variable
    Overall bit rate  : 2 391 kb/s
    Movie name  : Video
    Encoded date  : UTC 2017-09-09 09:05:16
    Writing application  : mkvmerge v10.0.0 ('To Drown In You') 64bit
    Writing library  : libebml v1.3.4 + libmatroska v1.4.5
    
    Video
    ID  : 1
    Format  : AVC
    Format/Info  : Advanced Video Codec
    Format profile  : High@L5
    Format settings, CABAC  : Yes
    Format settings, ReFrames  : 6 frames
    Codec ID  : V_MPEG4/ISO/AVC
    Duration  : 1 h 54 min
    Bit rate mode  : Variable
    Bit rate  : 2 048 kb/s
    Maximum bit rate  : 169 Mb/s
    Width  : 848 pixels
    Height  : 480 pixels
    Display aspect ratio  : 16:9
    Frame rate mode  : Constant
    Frame rate  : 23.976 (24000/1001) FPS
    Color space  : YUV
    Chroma subsampling  : 4:2:0
    Bit depth  : 8 bits
    Scan type  : Progressive
    Bits/(Pixel*Frame)  : 0.210
    Stream size  : 1.64 GiB (85%)
    Writing library  : x264 core 152 r2851 ba24899
    Encoding settings  : cabac=1 / ref=6 / deblock=1:-3:-3 / analyse=0x3:0x133 / me=umh / subme=8 / psy=1 / psy_rd=1.00:0.15 / mixed_ref=1 / me_range=24 / chroma_me=1 / trellis=1 / 8x8dct=1 / cqm=0 / deadzone=21,11 / fast_pskip=0 / chroma_qp_offset=-3 / threads=3 / lookahead_threads=1 / sliced_threads=0 / nr=0 / decimate=0 / interlaced=0 / bluray_compat=0 / constrained_intra=0 / bframes=5 / b_pyramid=2 / b_adapt=1 / b_bias=0 / direct=3 / weightb=1 / open_gop=0 / weightp=2 / keyint=240 / keyint_min=24 / scenecut=40 / intra_refresh=0 / rc_lookahead=50 / rc=2pass / mbtree=1 / bitrate=2048 / ratetol=100.0 / qcomp=0.60 / qpmin=0 / qpmax=69 / qpstep=4 / cplxblur=20.0 / qblur=0.5 / vbv_maxrate=168750 / vbv_bufsize=168750 / nal_hrd=vbr / filler=0 / ip_ratio=1.40 / aq=1:1.00
    Default  : Yes
    Forced  : No
    
    Audio
    ID  : 2
    Format  : Vorbis
    Format settings, Floor  : 1
    Codec ID  : A_VORBIS
    Duration  : 1 h 54 min
    Bit rate mode  : Variable
    Bit rate  : 320 kb/s
    Channel(s)  : 2 channels
    Sampling rate  : 48.0 kHz
    Frame rate  : 128.836 FPS (373 spf)
    Compression mode  : Lossy
    Stream size  : 282 MiB (14%)
    Writing library  : Lancer 20110424 (UTC 2011-04-24)
    Default  : Yes
    Forced  : No
    
    Menu
    00:03:50.000  : :01. Ningyo Hime
    00:09:56.000  : :02. Hitomi No Oku No Milky Way
    00:14:36.000  : :03. Blue Sky Blue
    00:17:41.000  : :04. Ajisai Kaleidoscope
    00:23:08.000  : :05. Taiyou To Himawari
    00:26:51.000  : :06. Akikaze No Answer
    00:30:21.000  : :07. Hatsukoi
    00:33:34.000  : :08. Yasashisa De Afureru You Ni
    00:42:09.000  : :09. Nettaigyo No Namida
    00:46:54.000  : :10. Sayonara, Alice
    00:50:58.000  : :11. Hoka No Dareka Yori Kanashii Koi Wo Shita Dake
    00:56:45.000  : :12. Call
    01:00:35.000  : :13. Virgin Snow
    01:11:22.000  : :14. Lucky 7
    01:14:39.000  : :15. Monochrome
    01:18:51.000  : :16. Dolphin Beach
    01:21:25.000  : :17. Dreamin' Together
    01:23:50.000  : :18. Imagination
    01:27:00.000  : :19. Flower Garden
    01:34:26.000  : :20. ShirayukiHime (Orchestral Mix)
    01:41:25.000  : :21. Colorful
    01:45:54.000  : :22. Tomorrow
    
    
    
    Code:
    Link: https://www.fshare.vn/file/IZ5GK9AFZFWZ
    Getlink: linksvip.net

    Taiyou No Elegy (APE | Image+CUE) [Limited / Anime Edition]
    Code:
    https://mega.nz/#!rBwV1LTb!ht7EHNKYVpNk1G0BbIPLF3jSJu5O-XDZkyZi6AdiOFw
    
    Passcode: WashioReina940120
    Last edited: Sep 9, 2017
  6. nvrbckdwn

    nvrbckdwn Ngáo Ộp Believer

      RE: Non-48 Flower

    Update link "Flower Theater" ở phía trên.
    Sau khi xem kĩ thì mình thấy thật sự file cũ có vấn đề về framerate nên encode lại, và giờ thì mọi thứ đã OK, xem rất mượt mà :v
    Khuyến khích mọi người redownload để có đc file chất lượng nhất, nhẹ hơn nhưng ngon hơn bản cũ :v
    Last edited: Sep 9, 2017
    irish142005 likes this.
  7. nvrbckdwn

    nvrbckdwn Ngáo Ộp Believer

      RE: Non-48 Flower

    6/12 E-Girls sẽ ra bài mới mang tên "Kitakaze to Taiyou", nghe cứ như single của Flower :v
    Chắc sẽ là ballad, một cú rẽ ngang trên đại lộ EDM của E-Girls :v
    Hy vọng lần này sẽ đc nghe bài ca con cá quen thuộc của fan quốc tế: E-Girls là Thiếu Niên và những người bạn :v
  8. irish142005

    irish142005 Member

      RE: Non-48 Flower



    Solo của Reina trong single thứ 20 sắp tới của E-girls. Hay dễ sợ, giọng nàng ngọt như mía. Cầu bài A-side cũng kiểu nhạc như vậy, đừng dance điếc EDM gì hết.

Share This Page